Underworld Blood Wars 2016 Download 720p Bluray

Synopsis


Underworld Blood Wars 2016 Download 720p Bluray


Underworld Blood Wars 2016 Download Free

Description:
#######################################################################

The next installment in the blockbuster franchise, UNDERWORLD: BLOOD WARS follows Vampire death dealer, Selene (Kate Beckinsale) as she fends off brutal attacks from both the Lycan clan and the Vampire faction that betrayed her. With her only allies, David (Theo James) and his father Thomas (Charles Dance), she must stop the eternal war between Lycans and Vampires, even if it means she has to make the ultimate sacrifice.

Written by Sony Pictures Entertainment

The war between the Vampires and the Lycans wages on with the Lycans led by Marius are close to defeating the Vampires. He thinks if he can get the hybrid daughter of Vampire Death Dealer Selene, her blood will be the key to defeating the Vampires once and for all. But when they attempt to capture her, they fail and she tells one of them to tell Marius, she doesn’t know where her daughter is; her daughter has cut ties with her. At the same time, Semira, Vampire Elder implores Thomas, another elder and father of David, Selene’s ally to convince the Council of Elders to give Selene whom they deem a traitor, amnesty so that she could train new Death Dealers to deal with the Lycans. They grant it and send word to Selene who comes and trains the aspiring Death Dealers. It’s when she battles one of Semira’s people, that he subdues her with a toxin that paralyzes her. Semira then has her man kill the trainees with Selene’s weapon. She then reveals she wants Selene for her blood. Eventually David learns of what Semira is doing and tries to get Selene away and takes her way to the only other Vampire stronghold there is. Eventually Marius learns of this and sets out to find Selene and find out for sure if she knows where her daughter is. And it’s while they are there at the stronghold that David learns the truth about his lineage.

Written by [email protected]

Vampire death dealer, Selene (Kate Beckinsale) fights to end the eternal war between the Lycan clan and the Vampire faction that betrayed her.

Written by Sony Pictures Entertainment

Source : Over Net
Format : Matroska
Format version : Version 4 / Version 2
File size : 753 MiB
Duration : 1 h 31 min
Overall bit rate : 1 147 kb/s
Movie name : Underworld Blood Wars 2016 720p WEBRip Dual Audio (Eng-Hindi Cam) x264 Aac By Sam
Encoded date : UTC 2017-02-09 12:21:28
Writing application : mkvmerge v8.1.0 (‘Psychedelic Postcard’) 32bit
Writing library : libebml v1.3.1 + libmatroska v1.4.2

Video
ID : 1
Format : AVC
Format/Info : Advanced Video Codec
Format profile : [email protected]
Format settings, CABAC : Yes
Format settings, ReFrames : 5 frames
Codec ID : V_MPEG4/ISO/AVC
Duration : 1 h 31 min
Bit rate : 949 kb/s
Width : 1 280 pixels
Height : 528 pixels
Display aspect ratio : 2.40:1
Frame rate mode : Constant
Frame rate : 23.976 (24000/1001) FPS
Color space : YUV
Chroma subsampling : 4:2:0
Bit depth : 8 bits
Scan type : Progressive
Bits/(Pixel*Frame) : 0.059
Stream size : 623 MiB (83%)
Writing library : x264 core 148 r2638 7599210
Default : Yes
Forced : No
Color range : Limited
Color primaries : BT.709
Matrix coefficients : BT.709

Audio #1
ID : 2
Format : AAC
Format/Info : Advanced Audio Codec
Format profile : LC
Codec ID : A_AAC
Duration : 1 h 31 min
Bit rate : 102 kb/s
Channel(s) : 2 channels
Channel positions : Front: L R
Sampling rate : 44.1 kHz
Frame rate : 43.066 FPS (1024 spf)
Compression mode : Lossy
Stream size : 67.3 MiB (9%)
Language : Hindi
Default : Yes
Forced : Yes

Audio #2
ID : 3
Format : AAC
Format/Info : Advanced Audio Codec
Format profile : LC
Codec ID : A_AAC
Duration : 1 h 31 min
Bit rate : 93.0 kb/s
Channel(s) : 2 channels
Channel positions : Front: L R
Sampling rate : 48.0 kHz
Frame rate : 46.875 FPS (1024 spf)
Compression mode : Lossy
Stream size : 60.9 MiB (8%)
Language : English
Default : No
Forced : No

Title: Underworld: Blood Wars Underworld Blood Wars 2016 Download Free
Year: 2016
Runtime: 91 mins
Votes: 11364
Rating: 6.4
All Genres: Action, Horror
Plot Outline: Vampire death dealer, Selene (Kate Beckinsale) fights to end the eternal war between the Lycan clan and the Vampire faction that betrayed her.
Tagline: Protect the bloodline.
Director: Anna Foerster
Writing By: Cory Goodman Kyle Ward Cory Goodman Kevin Grevioux Len Wiseman Danny McBride
Produced By: Anna Foerster David Kern Gary Lucchesi James McQuaide David Minkowski Tom Rosenberg Jackie Shenoo Matthew Stillman Skip Williamson Len Wiseman Richard S. Wright
Music: Michael Wandmacher

UnderWorld Blood Wars 2016 Download Free Hindi , Hindi Download Movie , Free Download

Underworld Blood Wars 2016 720p Bluray

Underworld Blood Wars 2016 Download Free

Ex High Speed

Google Drive

Comments


Video & Photo

1 videos 2 photos