Moana 2016 Download Free

Synopsis


Moana 2016 Download Free


 

 

 

 

 

 

 

 

 

 

 

 

 

 

 

 

 

 

 

 

 

 

 

 

 

 

 

 

Information:
#######################################################################
Title: Vaiana, la légende du bout du monde
Year: 2016
Runtime: 107 mins
Votes: 17069
Rating: 8.1
All Genres: Animation, Adventure, Comedy, Family, Fantasy, Musical
Plot Outline: In Ancient Polynesia, when a terrible curse incurred by Maui reaches an impetuous Chieftain’s daughter’s island, she answers the Ocean’s call to seek out the demigod to set things right.
Tagline: The ocean is calling.
Director: Ron Clements
Don Hall
John Musker
Chris Williams
Writing By: Jared Bush Ron Clements John Musker Chris Williams Don Hall Pamela Ribon Aaron Kandell Jordan Kandell
Produced By: John Lasseter Osnat Shurer
Music: Opetaia Foa’i Mark Mancina Lin-Manuel Miranda

 

Moana 2016 Download Free

Source : Own
Format : Matroska
Format version : Version 4 / Version 2
File size : 681 MiB
Duration : 1 h 46 min
Overall bit rate : 890 kb/s
Movie name : Moana 2016 Dual Audio Hd Rip Hindi English x264 Aac By Sam
Encoded date : UTC 2017-02-05 13:51:05
Writing application : mkvmerge v8.1.0 (‘Psychedelic Postcard’) 32bit
Writing library : libebml v1.3.1 + libmatroska v1.4.2

Video
ID : 1
Format : AVC
Format/Info : Advanced Video Codec
Format profile : [email protected]
Format settings, CABAC : Yes
Format settings, ReFrames : 5 frames
Codec ID : V_MPEG4/ISO/AVC
Duration : 1 h 46 min
Bit rate : 711 kb/s
Width : 720 pixels
Height : 336 pixels
Display aspect ratio : 2.143
Frame rate mode : Constant
Frame rate : 29.970 (30000/1001) FPS
Color space : YUV
Chroma subsampling : 4:2:0
Bit depth : 8 bits
Scan type : Progressive
Bits/(Pixel*Frame) : 0.098
Stream size : 543 MiB (80%)
Writing library : x264 core 148 r2694 3b70645
Default : Yes
Forced : No

Audio #1
ID : 2
Format : AAC
Format/Info : Advanced Audio Codec
Format profile : LC
Codec ID : A_AAC
Duration : 1 h 46 min
Bit rate : 105 kb/s
Channel(s) : 2 channels
Channel positions : Front: L R
Sampling rate : 44.1 kHz
Frame rate : 43.066 FPS (1024 spf)
Compression mode : Lossy
Stream size : 80.0 MiB (12%)
Language : Hindi
Default : Yes
Forced : Yes

Audio #2
ID : 3
Format : AAC
Format/Info : Advanced Audio Codec
Format profile : HE-AAC / LC
Codec ID : A_AAC
Duration : 1 h 46 min
Bit rate : 72.0 kb/s
Channel(s) : 2 channels
Channel positions : Front: L R
Sampling rate : 48.0 kHz / 24.0 kHz
Frame rate : 23.438 FPS (1024 spf)
Compression mode : Lossy
Stream size : 55.0 MiB (8%)
Language : English
Default : No
Forced : No

Moana 2016 Download Free

Download Link:

Ex High Speed Google Drive

Comments


Video & Photo

1 videos 1 photos