Synopsis


Logan 2017 720p Download

logan 2017 720p download


 

Source                      : Over Net
Format                      : Matroska
Format version              : Version 4 / Version 2
File size                   : 887 MiB
Duration                    : 2 h 11 min
Overall bit rate            : 946 kb/s
Movie name                  : Logan 2017 HDTC 720p Dual Audio (Hindi[Cam]-Eng) x264 Aac By Sam
Encoded date                : UTC 2017-03-13 16:16:02
Writing application         : mkvmerge v8.1.0 (‘Psychedelic Postcard’) 32bit
Writing library             : libebml v1.3.1 + libmatroska v1.4.2

Video
ID                          : 1
Format                      : AVC
Format/Info                 : Advanced Video Codec
Format profile              : [email protected]
Format settings, CABAC      : Yes
Format settings, ReFrames   : 4 frames
Codec ID                    : V_MPEG4/ISO/AVC
Duration                    : 2 h 11 min
Bit rate                    : 783 kb/s
Width                       : 1 280 pixels
Height                      : 544 pixels
Display aspect ratio        : 2.35:1
Frame rate mode             : Constant
Frame rate                  : 25.000 FPS
Color space                 : YUV
Chroma subsampling          : 4:2:0
Bit depth                   : 8 bits
Scan type                   : Progressive
Bits/(Pixel*Frame)          : 0.045
Stream size                 : 734 MiB (83%)
Writing library             : x264 core 148 r2638 7599210
Default                     : Yes
Forced                      : No

Audio #1
ID                          : 2
Format                      : AAC
Format/Info                 : Advanced Audio Codec
Format profile              : LC
Codec ID                    : A_AAC
Duration                    : 2 h 11 min
Bit rate                    : 96.0 kb/s
Channel(s)                  : 2 channels
Channel positions           : Front: L R
Sampling rate               : 48.0 kHz
Frame rate                  : 46.875 FPS (1024 spf)
Compression mode            : Lossy
Stream size                 : 90.0 MiB (10%)
Title                       : Olddilli
Language                    : Hindi
Default                     : No
Forced                      : Yes

Audio #2
ID                          : 3
Format                      : AAC
Format/Info                 : Advanced Audio Codec
Format profile              : LC
Codec ID                    : A_AAC
Duration                    : 2 h 11 min
Bit rate                    : 64.0 kb/s
Channel(s)                  : 2 channels
Channel positions           : Front: L R
Sampling rate               : 48.0 kHz
Frame rate                  : 46.875 FPS (1024 spf)
Compression mode            : Lossy
Delay relative to video     : 20 ms
Stream size                 : 60.0 MiB (7%)
Title                       : Olddilli
Language                    : English
Default                     : No
Forced                      : No

SCREENS

*

Comments


Video & Photo

1 photos