DO Lafzon Ki Kahani 2016

Synopsis


DO Lafzon Ki Kahani 2016


DO Lafzon Ki Kahani 2016 HDTV HEVC Movies Exclusive - 1.71 GB

DO Lafzon Ki Kahani 2016 HDTV HEVC Movies Exclusive – 1.71 GB

Format : HEVC
Format/Info : High Efficiency Video Coding
Format profile : [email protected]@Main
Codec ID : hev1
Codec ID/Info : High Efficiency Video Coding
Duration : 2 h 27 min
Bit rate : 1 499 kb/s
Width : 1 080 pixels
Height : 572 pixels
Display aspect ratio : 2.40:1
Original display aspect ratio : 2.40:1
Frame rate mode : Variable
Frame rate : 21.830 FPS
Minimum frame rate : 10.587 FPS
Maximum frame rate : 40.286 FPS
Color space : YUV
Chroma subsampling : 4:2:0
Bit depth : 8 bits
Bits/(Pixel*Frame) : 0.111
Stream size : 1.54 GiB (90%)
Writing library : x265 2.1:[Windows][GCC 5.4.0]
Color primaries : BT.709
Transfer characteristics : BT.709
Matrix coefficients : BT.709

Audio
ID : 2
Format : AAC
Format/Info : Advanced Audio Codec
Format profile : LC
Codec ID : 40
Duration : 2 h 27 min
Bit rate mode : Variable
Bit rate : 160 kb/s
Channel(s) : 2 channels
Channel positions : Front: L R
Sampling rate : 44.1 kHz
Frame rate : 43.066 FPS (1024 spf)
Compression mode : Lossy
Stream size : 168 MiB (10%)
Title : Stereo / Stereo
Default : Yes
Alternate group : 1

 Download Links Of  DO Lafzon Ki Kahani 2016

Comments


Video & Photo

1 videos 1 photos