Synopsis


Jolly LLB 2 Poster


Jolly LLB 2 2017 Download

Jolly LLB 2 2017 Hindi Pre-DvdRip x264 Aac By Sam – 796 MB

Jolly LLB 2 2017 Download Free


Source : OWN
Format : Matroska
Format version : Version 4 / Version 2
File size : 796 MiB
Duration : 2 h 12 min
Overall bit rate : 841 kb/s
Movie name : Jolly LLB 2 2017 Hindi Pre-DvdRip x264 Aac By Sam
Encoded date : UTC 2017-02-10 13:16:19
Writing application : mkvmerge v8.1.0 ('Psychedelic Postcard') 32bit
Writing library : libebml v1.3.1 + libmatroska v1.4.2

Video
ID : 1
Format : AVC
Format/Info : Advanced Video Codec
Format profile : [email protected]
Format settings, CABAC : Yes
Format settings, ReFrames : 4 frames
Codec ID : V_MPEG4/ISO/AVC
Duration : 2 h 12 min
Bit rate : 775 kb/s
Width : 704 pixels
Height : 304 pixels
Display aspect ratio : 2.35:1
Frame rate mode : Constant
Frame rate : 25.000 FPS
Color space : YUV
Chroma subsampling : 4:2:0
Bit depth : 8 bits
Scan type : Progressive
Bits/(Pixel*Frame) : 0.145
Stream size : 733 MiB (92%)
Writing library : x264 core 148 r2638 7599210
Default : Yes
Forced : No

Audio
ID : 2
Format : AAC
Format/Info : Advanced Audio Codec
Format profile : LC
Codec ID : A_AAC
Duration : 2 h 12 min
Bit rate : 64.0 kb/s
Channel(s) : 2 channels
Channel positions : Front: L R
Sampling rate : 48.0 kHz
Frame rate : 46.875 FPS (1024 spf)
Compression mode : Lossy
Delay relative to video : 20 ms
Stream size : 60.5 MiB (8%)
Language : Hindi
Default : Yes
Forced : Yes

screenshot logo 300x47

Jolly LLB 2 2017 Download

Jolly LLB 2 2017 Hindi Pre-DvdRip x264 Aac By Sam - 796 MB

Jolly LLB 2 2017 Download

*

Comments


Video & Photo

1 videos 5 photos