Synopsis



Assassins Creed 2016 720p Dual Audio Hindi

Format                                   : Matroska
Format version                           : Version 4 / Version 2
File size                                : 1.20 GiB
Duration                                 : 1 h 54 min
Overall bit rate                         : 1 498 kb/s
Encoded date                             : UTC 2017-02-20 13:29:45
Writing application                      : mkvmerge v9.7.1 (‘Pandemonium’) 64bit
Writing library                          : libebml v1.3.4 + libmatroska v1.4.5

Video
ID                                       : 1
Format                                   : AVC
Format/Info                              : Advanced Video Codec
Format profile                           : [email protected]
Format settings, CABAC                   : Yes
Format settings, ReFrames                : 5 frames
Codec ID                                 : V_MPEG4/ISO/AVC
Duration                                 : 1 h 54 min
Bit rate                                 : 1 175 kb/s
Width                                    : 1 280 pixels
Height                                   : 720 pixels
Display aspect ratio                     : 16:9
Frame rate mode                          : Constant
Frame rate                               : 29.860 FPS
Color space                              : YUV
Chroma subsampling                       : 4:2:0
Bit depth                                : 8 bits
Scan type                                : Progressive
Bits/(Pixel*Frame)                       : 0.043
Stream size                              : 966 MiB (78%)
Writing library                          : x264 core 133 r2334 a3ac64b
Default                                  : Yes
Forced                                   : No

Audio #1
ID                                       : 2
Format                                   : AAC
Format/Info                              : Advanced Audio Codec
Format profile                           : HE-AAC / LC
Codec ID                                 : A_AAC
Duration                                 : 1 h 54 min
Bit rate                                 : 64.0 kb/s
Channel(s)                               : 2 channels
Channel positions                        : Front: L R
Sampling rate                            : 44.1 kHz / 22.05 kHz
Frame rate                               : 21.533 FPS (1024 spf)
Compression mode                         : Lossy
Delay relative to video                  : 33 ms
Stream size                              : 52.6 MiB (4%)
Language                                 : English
Default                                  : No
Forced                                   : No

Audio #2
ID                                       : 3
Format                                   : MPEG Audio
Format version                           : Version 1
Format profile                           : Layer 3
Mode                                     : Joint stereo
Codec ID                                 : A_MPEG/L3
Codec ID/Hint                            : MP3
Duration                                 : 1 h 54 min
Bit rate mode                            : Constant
Bit rate                                 : 256 kb/s
Channel(s)                               : 2 channels
Sampling rate                            : 44.1 kHz
Frame rate                               : 38.281 FPS (1152 spf)
Compression mode                         : Lossy
Stream size                              : 210 MiB (17%)
Writing library                          : LAME3.98.2
Language                                 : Hindi
Default                                  : Yes
Forced                                   : Yes

Please Seed Back After Download

AHMED-MAHER-Thanks
Take It Or Leave It
lip to lip Sync by TEAM-EDM
leave Only 1  Comment – I will Reply with more

Stay toon With Us For More Exclusive Release

Assassins Creed 2016 720p Dual Audio Hindi Watch Online

Assassins Creed 2016 720p Dual Audio Hindi Download Links:

*

Comments


Video & Photo

1 videos 5 photos