Synopsis


Arrow S01E01 Hindi Download


Arrow S01E01 Hindi Download

Arrow S01E01 Hindi 720p – HDTV

Info :-

General

Complete name              : Arrow S01E01 Hindi 720p – HDTV X264 – Ahmed Maher [Team EDM].mkv
Format                  : Matroska
Format version              : Version 4 / Version 2
File size                : 433 MiB
Duration                 : 40 min
Overall bit rate             : 1 491 kb/s
Movie name                : Arrow S01E01 Hindi 720p – HDTV X264 – Ahmed Maher [Team EDM] Encoded date               : UTC 2016-12-27 16:50:11
Writing application           : mkvmerge v9.5.0 (‘Quiet Fire’) 64bit
Writing library             : libebml v1.3.4 + libmatroska v1.4.5

Arrow S01E01 Hindi Download

Video
ID                    : 1
Format                  : AVC
Format/Info               : Advanced Video Codec
Format profile              : [email protected]
Format settings, CABAC          : Yes
Format settings, ReFrames        : 4 frames
Codec ID                 : V_MPEG4/ISO/AVC
Duration                 : 40 min
Bit rate                 : 1 255 kb/s
Width                  : 1 280 pixels
Height                  : 720 pixels
Display aspect ratio           : 16:9
Frame rate mode             : Constant
Frame rate                : 25.000 FPS
Color space               : YUV
Chroma subsampling            : 4:2:0
Bit depth                : 8 bits
Scan type                : Progressive
Bits/(Pixel*Frame)            : 0.054
Stream size               : 377 MiB (87%)
Title                  : Arrow S01E01 Hindi 720p – HDTV X264 – Ahmed Maher [Team EDM] Writing library             : x264 core 142 r2479 dd79a61
Language                 : English
Default                 : Yes
Forced                  : No
Color range               : Limited
Color primaries             : BT.601 PAL
Transfer characteristics         : BT.709
Matrix coefficients           : BT.601

Audio
ID                    : 2
Format                  : AAC
Format/Info               : Advanced Audio Codec
Format profile              : LC
Codec ID                 : A_AAC
Duration                 : 40 min
Bit rate                 : 192 kb/s
Channel(s)                : 2 channels
Channel positions            : Front: L R
Sampling rate              : 48.0 kHz
Frame rate                : 46.875 FPS (1024 spf)
Compression mode             : Lossy
Delay relative to video         : -21 ms
Stream size               : 55.8 MiB (13%)
Title                  : Arrow S01E01 Hindi 720p – HDTV X264 – Ahmed Maher [Team EDM] Language                 : Hindi
Default                 : Yes
Forced                  : No

This is Urdu(PAK Dubbed) Audio
Keep in Mind
Ahmed Maher Thanks
Take It Or Leave It

Arrow S01E01 Hindi Download

Ex High Speed

Google Drive

Tags : Arrow S01E01 Hindi Download , Arrow Season 1 Hindi Download , Arrow Full Download , Arrow Seasons Download Free Online

Comments


Video & Photo

1 photos