d3296ced7717c86d607a74943c44ea6a.jpg


1CD x264 DesiPDVD Rip

Video Flickering completely removed

AAC Stereo

SCREENSHOTS
ce01ea8dfca061489938264203b6afc9.th.png 2119f66082281a14173a954501db7426.th.png e5f905e06945b09b7aa42fb5f87e6761.th.png 6d54fc48dd10f894fc132143aff29306.th.png 97bab7042c63aa30d24664f5813f1004.th.png dbf69f0c3611851ba3e358b10d4c9233.th.png 5806191f0be363ffde876912d81db9f1.th.png a6b304c43dee38c35fc200dc3f0ba50c.th.png 79e27b4d9c4c61414e892c4801c01143.th.png ca470cff065ff46b2663732069172521.th.png 7c7ec50572f3f2d190bb0b5e78b2953c.th.png ef665e88dcfb3c1c5f0020c3f08184bd.th.png caa05f36237e08022810537b8384cd14.th.png be5a4148f105b67cca1f598138fa4b05.th.png

SPECS

Source: DesiPDvD @ Lotto Ka Ware house

Format : Matroska
File size : 698 MiB
Duration : 2 h 12 min
Overall bit rate mode : Variable
Overall bit rate : 738 kb/s

Video
Format : AVC
Format/Info : Advanced Video Codec
Format profile : [email protected]
Format settings, CABAC : Yes
Format settings, ReFrames : 16 frames
Codec ID : V_MPEG4/ISO/AVC
Duration : 2 h 12 min
Bit rate mode : Variable
Bit rate : 672 kb/s
Maximum bit rate : 62.5 Mb/s
Width : 640 pixels
Height : 272 pixels
Display aspect ratio : 2.35:1
Frame rate mode : Constant
Frame rate : 24.975 (25000/1001) FPS
Color space : YUV
Chroma subsampling : 4:2:0
Bit depth : 8 bits
Scan type : Progressive
Bits/(Pixel*Frame) : 0.155
Stream size : 635 MiB (91%)
Default : Yes
Forced : No
Color range : Limited
Color primaries : BT.601 NTSC
Transfer characteristics : BT.470 System B, BT.470 System G
Matrix coefficients : BT.601

Audio
Format : AAC
Format/Info : Advanced Audio Codec
Format profile : LC
Codec ID : A_AAC
Duration : 2 h 12 min
Bit rate : 64.0 kb/s
Channel(s) : 2 channels
Channel positions : Front: L R
Sampling rate : 48.0 kHz
Frame rate : 46.875 FPS (1024 spf)
Compression mode : Lossy
Delay relative to video : 9 ms
Stream size : 60.5 MiB (9%)
Language : Hindi
Default : Yes
Forced : No
Chapters : None on source

SAMPLE Included

Download Now :-

hubfiles.pw
indishare.me
bdupload.info
uptobox.com
clicknupload.link
uploadmor.com
filecloud.io
uploadkadeh.com
upfile.mobi
downace.com
filescdn.com
1fichier.com
uploadx.org
ozofiles.com
uppit.com
filefactory.com
filerio.in
usersfiles.com
userscloud.com
multiup.org
arabloads.net
embedupload.com
openload.co
tusfiles.net

Comments


Related Article