mr robot season 1 image


Mr. Robot S01E01 720p BluRay x264 Hindi Tamil Telugu Subtitle By Team EDM ~590MB

GeneralComplete name                            : Mr. Robot S01E01 720p BluRay x264 Hindi Tamil Telugu Subtitle By Team EDM.mkv
Format                                   : Matroska
Format version                           : Version 4 / Version 2
File size                                : 566 MiB
Duration                                 : 1 h 4 min
Overall bit rate                         : 1 218 kb/s
Movie name                               : Mr. Robot S01E01 720p BluRay x264 Hindi Tamil Telugu Subtitle By Team EDM
Encoded date                             : UTC 2016-12-23 05:32:37
Writing application                      : mkvmerge v9.5.0 (‘Quiet Fire’) 64bit
Writing library                          : libebml v1.3.4 + libmatroska v1.4.5


Video
ID                                       : 1
Format                                   : AVC
Format/Info                              : Advanced Video Codec
Format profile                           : [email protected]
Format settings, CABAC                   : Yes
Format settings, ReFrames                : 5 frames
Codec ID                                 : V_MPEG4/ISO/AVC
Duration                                 : 1 h 4 min
Bit rate                                 : 1 117 kb/s
Width                                    : 1 280 pixels
Height                                   : 720 pixels
Display aspect ratio                     : 16:9
Frame rate mode                          : Constant
Frame rate                               : 23.976 (24000/1001) FPS
Color space                              : YUV
Chroma subsampling                       : 4:2:0
Bit depth                                : 8 bits
Scan type                                : Progressive
Bits/(Pixel*Frame)                       : 0.051
Stream size                              : 519 MiB (92%)
Title                                    : Mr. Robot S01E01 720p BluRay x264 Hindi Tamil Telugu Subtitle By Team EDM

Default                                  : Yes
Forced                                   : No

Audio
ID                                       : 2
Format                                   : AAC
Format/Info                              : Advanced Audio Codec
Format profile                           : HE-AAC / LC
Codec ID                                 : A_AAC
Duration                                 : 1 h 4 min
Bit rate                                 : 64.0 kb/s
Channel(s)                               : 2 channels
Channel positions                        : Front: L R
Sampling rate                            : 48.0 kHz / 24.0 kHz
Frame rate                               : 23.438 FPS (1024 spf)
Compression mode                         : Lossy
Delay relative to video                  : 31 ms
Stream size                              : 29.7 MiB (5%)
Title                                    : Team Edm
Language                                 : English
Default                                  : Yes
Forced                                   : No

Text #1
ID                                       : 3
Format                                   : PGS
Muxing mode                              : zlib
Codec ID                                 : S_HDMV/PGS
Codec ID/Info                            : Picture based subtitle format used on BDs/HD-DVDs
Duration                                 : 1 h 4 min
Bit rate                                 : 21.6 kb/s
Count of elements                        : 2212
Stream size                              : 9.94 MiB (2%)
Title                                    : PGS Team Edm
Language                                 : English
Default                                  : Yes
Forced                                   : No

Text #2
ID                                       : 4
Format                                   : PGS
Muxing mode                              : zlib
Codec ID                                 : S_HDMV/PGS
Codec ID/Info                            : Picture based subtitle format used on BDs/HD-DVDs
Duration                                 : 1 h 4 min
Bit rate                                 : 12.5 kb/s
Count of elements                        : 1622
Stream size                              : 5.76 MiB (1%)
Title                                    : PGS Team Edm
Language                                 : Hindi
Default                                  : No
Forced                                   : No

Text #3
ID                                       : 5
Format                                   : UTF-8
Codec ID                                 : S_TEXT/UTF8
Codec ID/Info                            : UTF-8 Plain Text
Duration                                 : 1 h 4 min
Bit rate                                 : 68 b/s
Count of elements                        : 1106
Stream size                              : 32.4 KiB (0%)
Title                                    : Team Edm
Language                                 : English
Default                                  : No
Forced                                   : No

Text #4
ID                                       : 6
Format                                   : UTF-8
Codec ID                                 : S_TEXT/UTF8
Codec ID/Info                            : UTF-8 Plain Text
Duration                                 : 1 h 4 min
Bit rate                                 : 160 b/s
Count of elements                        : 811
Stream size                              : 75.7 KiB (0%)
Title                                    : Team Edm
Language                                 : Hindi
Default                                  : No
Forced                                   : No

Text #5
ID                                       : 7
Format                                   : UTF-8
Codec ID                                 : S_TEXT/UTF8
Codec ID/Info                            : UTF-8 Plain Text
Duration                                 : 1 h 4 min
Bit rate                                 : 178 b/s
Count of elements                        : 811
Stream size                              : 84.3 KiB (0%)
Title                                    : Team Edm
Language                                 : Telugu
Default                                  : No
Forced                                   : No

Text #6
ID                                       : 8
Format                                   : UTF-8
Codec ID                                 : S_TEXT/UTF8
Codec ID/Info                            : UTF-8 Plain Text
Duration                                 : 1 h 4 min
Bit rate                                 : 231 b/s
Count of elements                        : 811
Stream size                              : 109 KiB (0%)
Title                                    : Team Edm
Language                                 : Tamil
Default                                  : No
Forced                                   : No

Hindi English Subtitle By Kishan
Thanks
Tamil & Telugu Subtitle Sync By Myself

First Episode Release With Only Hindi English Tamil & Telugu Subtitle

Stay With Us For More Exclusive Release

 ss
 Click On Image  Enlarge View With Subtitle ?
                                
d

ClicknUpload
BDUpload
MultiUp
UptoBox
Indishare
Downace
Zag

Comments


Related Article